#TITLE:Bandolero Comanchero;
#SUBTITLE:;
#ARTIST:Franz "Mad Cow" Tornado;
#TITLETRANSLIT:;
#SUBTITLETRANSLIT:;
#ARTISTTRANSLIT:;
#GENRE:;
#CREDIT:;
#BANNER:ppp.jpg;
#BACKGROUND:;
#LYRICSPATH:;
#CDTITLE:;
#MUSIC:Bando.mp3;
#OFFSET:-0.967;
#SAMPLESTART:15.220;
#SAMPLELENGTH:12.000;
#SELECTABLE:YES;
#BPMS:0.000=163.000;
#STOPS:;
#DELAYS:;
#TIMESIGNATURES:0.000=4=4
;
#BGCHANGES:;
#KEYSOUNDS:;
#ATTACKS:;
// cache tags:
#FIRSTBEAT:8.000;
#LASTBEAT:203.000;
#SONGFILENAME:/Songs/ParaPara/Bandolero Comanchero/Bandolero Comanchero.sm;
#HASMUSIC:1;
#HASBANNER:1;
#MUSICLENGTH:81.430;
// end cache tags

//---------------para-single - Blank----------------
#NOTES:
     para-single:
     Blank:
     Beginner:
     4:
     0.258,0.374,0.172,0.098,0.000,125.000,14.000,8.000,0.000,0.000,0.000,0.000,-1.000,-1.000,0.258,0.374,0.172,0.098,0.000,125.000,14.000,8.000,0.000,0.000,0.000,0.000,-1.000,-1.000:
00000
00000
00000
00000
,
00000
00000
00000
00000
,
00010
00010
00100
00000
,
00100
00000
00100
00000
,
01000
01000
00100
00000
,
00100
00000
00100
00000
,
00010
00010
00100
00000
,
00100
00000
00100
00000
,
01000
01000
00100
00000
,
00100
00000
00100
00000
,
00001
00000
10000
00000
,
00000
00000
01010
00000
,
00001
00000
10000
00000
,
00000
00000
01010
00000
,
00001
00000
10000
00000
,
00000
00000
01010
00000
,
00001
00000
10000
00000
,
00000
00000
01010
00000
,
01000
00000
00000
00000
,
00010
00000
00000
00000
,
01000
00100
00010
00000
00010
00100
01000
00000
,
00100
00000
01010
00000
,
01000
00000
00000
00000
,
00010
00000
00000
00000
,
01000
00100
00010
00000
00010
00100
01000
00000
,
00000
02020
03030
00000
,
00000
10001
00000
10001
,
00000
00000
02000
03000
,
00010
00100
01000
00000
,
00010
01000
00010
10000
,
00000
10001
00000
10001
,
00000
00000
02000
03000
,
00010
00100
01000
00000
,
00001
10000
00001
10000
,
00000
10001
00000
10001
,
00000
00000
02000
03000
,
00010
00100
01000
00000
,
00010
01000
00010
10000
,
00000
10001
00000
10001
,
00000
00000
02000
03000
,
00010
00100
01000
00000
,
00002
10003
00000
00000
,
00020
00000
00030
00000
,
00000
00000
00000
00000
00000
00000
00000
00100
,
00010
00000
00000
00010
00100
00000
00000
00100
,
00010
00000
00000
00010
00100
00000
00000
00100
,
00010
00010
00100
00100
00010
00010
00100
00100
,
00010
00000
00000
00010
00100
00000
00000
00100
,
00010
00000
00000
00010
00100
00000
00000
00100
,
00010
00000
00000
00010
00100
00000
00000
00100
,
00010
00010
00100
00100
00010
00000
00100
00000
;

//---------------para-single - Blank----------------
#NOTES:
     para-single:
     Blank:
     Edit:
     4:
     0.258,0.374,0.172,0.098,0.000,125.000,14.000,8.000,0.000,0.000,0.000,0.000,-1.000,-1.000,0.258,0.374,0.172,0.098,0.000,125.000,14.000,8.000,0.000,0.000,0.000,0.000,-1.000,-1.000:
00000
00000
00000
00000
,
00000
00000
00000
00000
,
00010
00010
00100
00000
,
00100
00000
00100
00000
,
01000
01000
00100
00000
,
00100
00000
00100
00000
,
00010
00010
00100
00000
,
00100
00000
00100
00000
,
01000
01000
00100
00000
,
00100
00000
00100
00000
,
00001
00000
10000
00000
,
00000
00000
01010
00000
,
00001
00000
10000
00000
,
00000
00000
01010
00000
,
00001
00000
10000
00000
,
00000
00000
01010
00000
,
00001
00000
10000
00000
,
00000
00000
01010
00000
,
01000
00000
00000
00000
,
00010
00000
00000
00000
,
01000
00100
00010
00000
00010
00100
01000
00000
,
00100
00000
01010
00000
,
01000
00000
00000
00000
,
00010
00000
00000
00000
,
01000
00100
00010
00000
00010
00100
01000
00000
,
00000
02020
03030
00000
,
00000
10001
00000
10001
,
00000
00000
02000
03000
,
00010
00100
01000
00000
,
00010
01000
00010
10000
,
00000
10001
00000
10001
,
00000
00000
02000
03000
,
00010
00100
01000
00000
,
00001
10000
00001
10000
,
00000
10001
00000
10001
,
00000
00000
02000
03000
,
00010
00100
01000
00000
,
00010
01000
00010
10000
,
00000
10001
00000
10001
,
00000
00000
02000
03000
,
00010
00100
01000
00000
,
00002
10003
00000
00000
,
00020
00000
00030
00000
,
00000
00000
00000
00000
00000
00000
00000
00100
,
00010
00000
00000
00010
00100
00000
00000
00100
,
00010
00000
00000
00010
00100
00000
00000
00100
,
00010
00010
00100
00100
00010
00010
00100
00100
,
00010
00000
00000
00010
00100
00000
00000
00100
,
00010
00000
00000
00010
00100
00000
00000
00100
,
00010
00000
00000
00010
00100
00000
00000
00100
,
00010
00010
00100
00100
00010
00000
00100
00000
;
